<?xml version="1.0" standalone="no"?>
<!DOCTYPE svg PUBLIC "-//W3C//DTD SVG 1.1//EN" "http://www.w3.org/Graphics/SVG/1.1/DTD/svg11.dtd">
<svg xmlns="http://www.w3.org/2000/svg">
<metadata>Copyright (C) 2019 by original authors @ fontello.com</metadata>
<defs>
<font id="fontello" horiz-adv-x="1000" >
<font-face font-family="fontello" font-weight="400" font-stretch="normal" units-per-em="1000" ascent="850" descent="-150" />
<missing-glyph horiz-adv-x="1000" />
<glyph glyph-name="linkedin" unicode="&#xe800;" d="M196-25h-181v584h181z m-91 664c-58 0-105 48-105 106a105 105 0 0 0 210 0c0-58-47-106-105-106z m770-664h-181v284c0 68-2 155-94 155-95 0-109-74-109-150v-289h-181v584h174v-79h2c24 45 83 94 172 94 183 0 217-121 217-278v-321z" horiz-adv-x="875" />

<glyph glyph-name="icon-eco" unicode="&#xe801;" d="M800 725a31 31 0 0 0 33-31c0-323-67-535-199-630-54-39-118-58-191-58-52 0-109 10-171 30-86-51-148-60-153-61l-4 0a31 31 0 0 0-4 62c1 0 49 8 120 48-53 144-47 277 19 384 91 146 291 239 550 256z m-29-65c-222-21-392-102-467-224-55-88-61-195-19-317 74 53 161 139 240 278a31 31 0 1 0 54-31c-78-137-163-226-239-284 106-25 192-14 257 33 111 80 169 263 174 545z" horiz-adv-x="1000" />

<glyph glyph-name="dot-3" unicode="&#xe802;" d="M110 460q46 0 78-32t32-78q0-44-32-77t-78-33-78 33-32 77q0 46 32 78t78 32z m350 0q46 0 78-32t32-78q0-44-33-77t-77-33-77 33-33 77q0 46 32 78t78 32z m350 0q46 0 78-32t32-78q0-44-32-77t-78-33-78 33-32 77q0 46 32 78t78 32z" horiz-adv-x="920" />

<glyph glyph-name="search" unicode="&#xe803;" d="M643 386q0 103-73 176t-177 74-177-74-73-176 73-177 177-73 177 73 73 177z m286-465q0-29-22-50t-50-21q-30 0-50 21l-191 191q-100-69-223-69-80 0-153 31t-125 84-84 125-31 153 31 152 84 126 125 84 153 31 153-31 125-84 84-126 31-152q0-123-69-223l191-191q21-21 21-51z" horiz-adv-x="928.6" />

<glyph glyph-name="chevron" unicode="&#xe804;" d="M500 683l-59-58 233-233h-507v-84h507l-233-233 59-58 333 333z" horiz-adv-x="1000" />

<glyph glyph-name="link" unicode="&#xe805;" d="M294 116q14 14 34 14t36-14q32-34 0-70l-42-40q-56-56-132-56-78 0-134 56t-56 132q0 78 56 134l148 148q70 68 144 77t128-43q16-16 16-36t-16-36q-36-32-70 0-50 48-132-34l-148-146q-26-26-26-64t26-62q26-26 63-26t63 26z m450 574q56-56 56-132 0-78-56-134l-158-158q-74-72-150-72-62 0-112 50-14 14-14 34t14 36q14 14 35 14t35-14q50-48 122 24l158 156q28 28 28 64 0 38-28 62-24 26-56 31t-60-21l-50-50q-16-14-36-14t-34 14q-34 34 0 70l50 50q54 54 127 51t129-61z" horiz-adv-x="800" />

<glyph glyph-name="down-open" unicode="&#xe806;" d="M939 399l-414-413q-10-11-25-11t-25 11l-414 413q-11 11-11 26t11 25l93 92q10 11 25 11t25-11l296-296 296 296q11 11 25 11t26-11l92-92q11-11 11-25t-11-26z" horiz-adv-x="1000" />

<glyph glyph-name="right-open" unicode="&#xe807;" d="M618 361l-414-415q-11-10-25-10t-25 10l-93 93q-11 11-11 25t11 25l296 297-296 296q-11 11-11 25t11 25l93 93q10 11 25 11t25-11l414-414q10-11 10-25t-10-25z" horiz-adv-x="714.3" />

<glyph glyph-name="left-open" unicode="&#xe808;" d="M654 682l-297-296 297-297q10-10 10-25t-10-25l-93-93q-11-10-25-10t-25 10l-414 415q-11 10-11 25t11 25l414 414q10 11 25 11t25-11l93-93q10-10 10-25t-10-25z" horiz-adv-x="714.3" />

<glyph glyph-name="up-open" unicode="&#xe809;" d="M939 107l-92-92q-11-10-26-10t-25 10l-296 297-296-297q-11-10-25-10t-25 10l-93 92q-11 11-11 26t11 25l414 414q11 10 25 10t25-10l414-414q11-11 11-25t-11-26z" horiz-adv-x="1000" />

<glyph glyph-name="logo-engie" unicode="&#xe80a;" d="M2658 453c-91 23-181 48-272 71a3214 3214 0 0 1-572 86c-160 10-324 21-485 20a4360 4360 0 0 1-1062-120c-67-20-137-40-205-60 186 179 789 362 1246 370 484 7 938-102 1350-367z m-902-387l-166 12c-47 3-70 16-68 40s24 34 66 35c72 0 144 2 215 0 60 0 83-31 72-91a184 184 0 0 0-80-122 337 337 0 0 0-165-56 469 469 0 0 0-258 40 190 190 0 0 0-119 166 193 193 0 0 0 100 178 368 368 0 0 0 198 57 1177 1177 0 0 0 193-20 160 160 0 0 0 49-29c-11-40-37-37-63-36-56 0-113 5-170 0a311 311 0 0 1-108-29 115 115 0 0 1-7-213 271 271 0 0 1 266-6 65 65 0 0 1 45 74z m795 117c-70 87-247 80-305-9a110 110 0 0 1 31-160 292 292 0 0 1 160-48 1088 1088 0 0 1 144 9c40 5 40 6 69-24-4-31-29-40-52-46a556 556 0 0 0-330 0 327 327 0 0 0-80 40 193 193 0 0 0-11 316 390 390 0 0 0 391 29 181 181 0 0 0 93-128c10-52-13-82-65-83-72 0-143 0-215 0h-6c-23 0-43 7-48 32s17 38 48 40c37 3 75 3 113 3 23 1 47 0 63 29z m-2271-68a61 61 0 0 0 64 37c36 0 72 0 108 4a304 304 0 0 1 58 16 89 89 0 0 1-62 59 248 248 0 0 1-190-10 123 123 0 0 1-78-113 116 116 0 0 1 75-107 446 446 0 0 1 259-31 272 272 0 0 0 56 7c12 0 30-11 33-21s-7-26-16-36a74 74 0 0 0-34-15 555 555 0 0 0-317-3 363 363 0 0 0-70 28 194 194 0 0 0-15 341 357 357 0 0 0 249 54 420 420 0 0 0 114-32 170 170 0 0 0 102-120c15-60-10-93-72-93s-134 0-202 0c-35 0-35 0-62 35z m394-25c0 48 0 97 0 145a73 73 0 0 0 40 73 70 70 0 0 0 80-16l212-179c64-54 77-49 91 35 7 40 11 80 17 120 5 33 25 53 47 48a46 46 0 0 0 37-51c0-103 0-207 0-310 0-25-6-52-34-62a72 72 0 0 0-76 17l-192 173a498 498 0 0 1-40 33c-40 30-64 21-74-29s-16-91-24-136a150 150 0 0 0-5-31 40 40 0 0 0-43-30 40 40 0 0 0-35 38c-3 35 0 71 0 107v55z m1246 86l123 20c0-21 4-37 3-53q-6-101-14-200a78 78 0 0 0-12-35 40 40 0 0 0-73 6 80 80 0 0 0-8 30c-5 74-11 149-19 232z m139 68l-130-23c-11 65 2 94 43 105s68-13 87-82z" horiz-adv-x="2720" />

<glyph glyph-name="external-site" unicode="&#xe80b;" d="M688 350l-209-208-58 58 108 108h-404v84h404l-108 108 58 58 209-208z m104 375h-584c-45 0-83-37-83-83v-167h83v167h584v-584h-584v167h-83v-167c0-45 38-83 83-83h584c46 0 83 38 83 83v584c0 46-37 83-83 83z" horiz-adv-x="1000" />

<glyph glyph-name="no-picture" unicode="&#xe80c;" d="M154 683h304v84h-304c-50 0-87-38-87-84v-291h87v291z m259-375l-175-208h520l-129 167-87-113c0 0-129 154-129 154z m304 188c0 33-29 62-67 62-37 0-67-29-67-62s30-63 67-63c38 0 67 30 67 63z m133 271h-304v-84h304v-291h88v291c-5 46-42 84-88 84z m0-750h-304v-84h304c46 0 88 38 88 84v291h-88v-291z m-696 291h-87v-291c0-46 37-84 87-84h304v84h-304v291z" horiz-adv-x="1000" />

<glyph glyph-name="people" unicode="&#xe80d;" d="M696 308c-54 0-133-12-196-41-62 29-146 41-196 41-96 0-283-45-283-137v-113h958v117c0 88-187 133-283 133z m-175-187h-433v54c0 21 112 75 216 75 109 0 217-50 217-75v-54z m392 0h-325v54c0 21-9 38-21 50 37 13 83 21 133 21 108 0 217-50 217-75v-50z m-455 375c0 79-70 146-154 146-83 0-154-67-154-146 0-79 67-146 154-146 84 0 154 67 154 146z m-154-83c-50 0-87 37-87 83 0 46 37 83 87 83 50 0 88-37 88-83 0-46-42-83-88-83z m392 229c-83 0-154-67-154-146s66-146 154-146c83 0 154 67 154 146s-71 146-154 146z m0-229c-50 0-88 37-88 83 0 46 38 83 88 83h0c46 0 87-37 87-83 0-46-37-83-87-83z" horiz-adv-x="1000" />

<glyph glyph-name="logo-engie-mini" unicode="&#xe80e;" d="M970 699c-145 101-313 153-485 151-172 2-340-50-485-151 129 46 280 75 485 75 205 0 355-29 485-75m-729-483c0 140 127 197 228 205 105 9 188-14 230-59 27-28 20-66-33-69-48-3-138-6-212-9-43-1-65-25-65-56 0-24 18-52 67-53 70 0 248-1 336-1 58 0 87 33 87 101 0 108-97 272-378 272-256 0-440-129-440-341 0-300 433-391 751-280 31 11 58 33 49 67-8 30-32 42-68 34-258-57-552 4-552 189z" horiz-adv-x="970" />

<glyph glyph-name="close" unicode="&#xe80f;" d="M182 100l247 250-247 248a50 50 0 1 0 68 73l3-3 250-247 247 247a50 50 0 0 0 70 2 50 50 0 0 0 0-70l-2 0-250-250 250-248a50 50 0 0 0 2-70 50 50 0 0 0-70-2l0 2-248 250-248-250a50 50 0 0 0-72 68z" horiz-adv-x="1000" />

<glyph glyph-name="solution-energy" unicode="&#xe810;" d="M542 725h-84v-417h84v417z m200-92l-59-58c71-54 109-137 109-225 0-162-129-292-292-292-162 0-292 130-292 292 0 88 38 171 109 225l-59 58c-83-70-133-175-133-283 0-208 167-375 375-375s375 167 375 375c0 113-50 217-133 283z" horiz-adv-x="1000" />

<glyph glyph-name="solution-home" unicode="&#xe811;" d="M500 725l-417-375h125v-333h250v250h84v-250h250v333h125l-417 375z m208-625h-83v250h-250v-250h-83v325l208 188 208-188v-325z" horiz-adv-x="1000" />

<glyph glyph-name="down" unicode="&#xe812;" d="M571 457q0-14-10-25l-250-250q-11-11-25-11t-25 11l-250 250q-11 11-11 25t11 25 25 11h500q14 0 25-11t10-25z" horiz-adv-x="571.4" />

<glyph glyph-name="up" unicode="&#xe813;" d="M571 171q0-14-10-25t-25-10h-500q-15 0-25 10t-11 25 11 26l250 250q10 10 25 10t25-10l250-250q10-11 10-26z" horiz-adv-x="571.4" />

<glyph glyph-name="solution-resource" unicode="&#xe814;" d="M746 533l-246 246-246-246c-66-66-100-154-100-245 0-92 38-180 100-246 134-138 354-138 492 0 0 0 0 0 0 0 67 66 100 154 100 246 0 91-33 179-100 245z m-58-433c-105-104-271-104-371 0 0 0 0 0 0 0-50 50-75 117-79 188 0 66 29 137 79 187l183 183 188-183c50-50 75-117 79-187-4-71-29-138-79-188z" horiz-adv-x="1000" />

<glyph glyph-name="solution-efficiency" unicode="&#xe815;" d="M83 350l230-229-63-63-229 230 62 62z m834 271l62-63-500-479-229 229 63 63 166-167 438 417z m-229-21l58-58-246-234-62 63 250 229z" horiz-adv-x="1000" />

<glyph glyph-name="solution-mobility" unicode="&#xe816;" d="M267 433l-184-208 184-208v158h316v104h-316v154z m650 42l-184 208v-158h-316v-104h316v-154l184 208z" horiz-adv-x="1000" />

<glyph glyph-name="clip" unicode="&#xf06a;" d="M0 48q0-69 48-118 49-49 117-49t118 49l481 484q65 65 65 159 0 93-65 158t-157 65-158-65l-366-368 55-56 366 369q43 43 103 43t103-43q43-43 43-103t-43-103l-482-484q-26-26-63-26t-62 26q-25 25-25 62t25 63l401 404q9 8 21 8t22-8q8-9 8-21 0-12-8-21l-301-303 54-56 301 304q31 31 31 76 0 46-31 76-31 32-76 32t-75-32l-402-404q-48-49-48-118z" horiz-adv-x="829.6" />

<glyph glyph-name="youtube" unicode="&#xf16a;" d="M397 221l270 139-270 141v-280z m103 481q94 0 181-3t128-5l41-2q0 0 9-1t13-2 13-2 16-5 16-7 17-11 16-15q4-3 9-10t16-33 15-56q4-36 7-76t3-64v-98q1-81-10-162-4-30-14-55t-18-35l-8-9q-7-8-16-15t-17-10-16-7-16-5-13-2-13-2-9-1q-140-11-350-11-115 2-201 4t-111 4l-28 3-20 2q-20 3-30 5t-29 12-31 23q-4 3-9 10t-16 33-15 56q-4 36-7 76t-3 64v98q-1 81 10 162 4 31 14 55t18 35l8 9q8 9 16 15t17 11 16 7 16 5 13 2 13 2 9 1q140 10 350 10z" horiz-adv-x="1000" />

<glyph glyph-name="instagram" unicode="&#xf16d;" d="M571 350q0 59-41 101t-101 42-101-42-42-101 42-101 101-42 101 42 41 101z m77 0q0-91-64-156t-155-64-156 64-64 156 64 156 156 64 155-64 64-156z m61 229q0-21-15-36t-37-15-36 15-15 36 15 36 36 15 37-15 15-36z m-280 123q-4 0-43 0t-59 0-54-2-57-5-40-11q-28-11-49-32t-33-49q-6-16-10-40t-6-58-1-53 0-59 0-43 0-43 0-59 1-53 6-58 10-40q12-28 33-49t49-32q16-6 40-11t57-5 54-2 59 0 43 0 42 0 59 0 54 2 58 5 39 11q28 11 50 32t32 49q6 16 10 40t6 58 1 53 0 59 0 43 0 43 0 59-1 53-6 58-10 40q-11 28-32 49t-50 32q-16 6-39 11t-58 5-54 2-59 0-42 0z m428-352q0-128-3-177-5-116-69-180t-179-69q-50-3-177-3t-177 3q-116 6-180 69t-69 180q-3 49-3 177t3 177q5 116 69 180t180 69q49 3 177 3t177-3q116-6 179-69t69-180q3-49 3-177z" horiz-adv-x="857.1" />

<glyph glyph-name="twitter" unicode="&#xf309;" d="M920 636q-36-54-94-98l0-24q0-130-60-250t-186-203-290-83q-160 0-290 84 14-2 46-2 132 0 234 80-62 2-110 38t-66 94q10-4 34-4 26 0 50 6-66 14-108 66t-42 120l0 2q36-20 84-24-84 58-84 158 0 48 26 94 154-188 390-196-6 18-6 42 0 78 55 133t135 55q82 0 136-58 60 12 120 44-20-66-82-104 56 8 108 30z" horiz-adv-x="920" />

<glyph glyph-name="facebook" unicode="&#xf30c;" d="M500 644l-142 0q-14 0-25-15t-11-37l0-102 178 0 0-148-178 0 0-442-170 0 0 442-152 0 0 148 152 0 0 86q0 94 59 159t147 65l142 0 0-156z" horiz-adv-x="500" />
</font>
</defs>
</svg>
